Download Infinite (2021) 720p English TRUE HQ HDRip x264 AC3 DD 5 1 ESub By Full4Movies mkv torrent - GloDLS
Torrent Details For "Infinite (2021) 720p English TRUE HQ HDRip x264 AC3 DD 5 1 ESub By Full4Movies mkv"

Infinite (2021) 720p English TRUE HQ HDRip x264 AC3 DD 5 1 ESub By Full4Movies mkv

To download this torrent, you need a BitTorrent client: Vuze or BTGuard
Download this torrent
Download using Magnet Link

Health:
Seeds: 187
Leechers: 161
Completed: 304 
Last Checked: 10-06-2021 16:37:22

Uploader Reputation points : 5843





Write a Review for the Uploader:   5   Say Thanks with one good review:
Share on Facebook


Details
Name:Infinite (2021) 720p English TRUE HQ HDRip x264 AC3 DD 5 1 ESub By Full4Movies mkv
Description:


Visit Us = https://www.full4movies.org/



General
Complete name                  : Infinite (2021) 720p English TRUE HQ HDRip x264 AC3 DD 5.1 ESub By Full4Movies.mkv
Format                         : Matroska
Format version                 : Version 4 / Version 2
File size                      : 854 MiB
Duration                       : 1 h 46 min
Overall bit rate               : 1 123 kb/s
Encoded date                   : UTC 2021-06-10 10:52:08
Writing application            : mkvmerge v8.3.0 ('Over the Horizon') 64bit
Writing library                : libebml v1.3.1 + libmatroska v1.4.2
Attachments                    : cooltext383845052472320.jpg

Video
ID                             : 1
Format                         : AVC
Format/Info                    : Advanced Video Codec
Format profile                 : [email protected]
Format settings, CABAC         : Yes
Format settings, RefFrames     : 4 frames
Codec ID                       : V_MPEG4/ISO/AVC
Duration                       : 1 h 46 min
Bit rate                       : 936 kb/s
Width                          : 1 280 pixels
Height                         : 536 pixels
Display aspect ratio           : 2.40:1
Frame rate mode                : Constant
Frame rate                     : 24.000 FPS
Color space                    : YUV
Chroma subsampling             : 4:2:0
Bit depth                      : 8 bits
Scan type                      : Progressive
Bits/(Pixel*Frame)             : 0.057
Stream size                    : 707 MiB (83%)
Writing library                : x264 core 157 r2935 545de2f
Language                       : English
Default                        : Yes
Forced                         : No

Audio
ID                             : 2
Format                         : AC-3
Format/Info                    : Audio Coding 3
Format settings, Endianness    : Big
Codec ID                       : A_AC3
Duration                       : 1 h 46 min
Bit rate mode                  : Constant
Bit rate                       : 192 kb/s
Channel(s)                     : 6 channels
Channel positions              : Front: L C R, Side: L R, LFE
Sampling rate                  : 48.0 kHz
Frame rate                     : 31.250 FPS (1536 SPF)
Bit depth                      : 16 bits
Compression mode               : Lossy
Stream size                    : 146 MiB (17%)
Language                       : English
Service kind                   : Complete Main
Default                        : Yes
Forced                         : No

Text #1
ID                             : 3
Format                         : UTF-8
Codec ID                       : S_TEXT/UTF8
Codec ID/Info                  : UTF-8 Plain Text
Duration                       : 1 h 40 min
Bit rate                       : 47 b/s
Count of elements              : 1130
Stream size                    : 34.6 KiB (0%)
Title                          : ESub
Language                       : English
Default                        : No
Forced                         : No

Screen Shoots




YouTube Video:
Category:Movies
Language:English  English
Total Size:854.13 MB
Info Hash:0B0F5667928F90B48F19E6B709B19F1874D878D5
Added By:india4movie Verified Uploader
Date Added:2021-06-10 19:15:17
Torrent Status:Torrent Verified


Ratings:Not Yet Rated (Log in to rate it)


Tracker:
udp://tracker.opentrackr.org:1337/announce

This Torrent also has backup trackers
URLSeedersLeechersCompleted
udp://tracker.opentrackr.org:1337/announce303755
udp://tracker.cyberia.is:6969/announce000
udp://9.rarbg.me:2980/announce232051
udp://open.stealth.si:80/announce211231
udp://exodus.desync.com:6969/announce141028
udp://tracker.moeking.me:6969/announce171524
udp://explodie.org:6969/announce000
udp://tracker.openbittorrent.com:80/announce121610
udp://inferno.demonoid.is:3391/announce151022
udp://tracker.torrent.eu.org:451/announce161023
udp://ipv4.tracker.harry.lu:80/announce770
udp://tracker.uw0.xyz:6969/announce181432
udp://tracker.coppersurfer.tk:6969/announce000
udp://exodus.desync.com:6969/announce141028
udp://tracker.tiny-vps.com:6969/announce000


File List: 





Comments
No comments still posted