Download Edge of the World 2021 HDRip XviD B4ND1T69 torrent - GloDLS
Login
Username:
Password:
Remember Me:
[Signup]
[Recover Account]
Friends
Angie Torrents
Friendly Site

Pirateiro
Friendly site

Free Courses Online
Friendly site

ETTV
Friendly site

ProStyleX
Friendly site

KaranPC
Friendly site

P2PDL.com
Friendly site

OneHack
Friendly site

IGGGames
Friendly site

Torrent Details For "Edge of the World 2021 HDRip XviD B4ND1T69"

Edge of the World 2021 HDRip XviD B4ND1T69

To download this torrent, you need a BitTorrent client: Vuze or BTGuard
Download this torrent
Download using Magnet Link

Health:
Seeds: 98
Leechers: 6
Completed: 3,181 
Last Checked: 16-06-2021 01:12:42

Uploader Reputation points : 886
External: Torrent






Write a Review for the Uploader:   0   Say Thanks with one good review:
Share on Facebook


Details
Name:Edge of the World 2021 HDRip XviD B4ND1T69
Description:
Edge.of.the.World.2021.HDRip.XviD.B4ND1T69



Director: Michael Haussman
Writer: Rob Allyn
Stars: Jonathan Rhys Meyers, Dominic Monaghan, Ralph Ineson

Plot/Story:
The adventures of Sir James Brooke, who defied the British Empire to rule a jungle kingdom in 1840s Borneo, embarked on a lifelong crusade to end piracy, slavery and head-hunting, and inspired LORD JIM and THE MAN WHO WOULD BE KING.

General
Complete name               : Edge.of.the.World.2021.HDRip.XviD.B4ND1T69.avi
Format                      : AVI
Format/Info                 : Audio Video Interleave
File size                   : 948 MiB
Duration                    : 1 h 44 min
Overall bit rate            : 1 271 kb/s
Subtitles                   : Yes...Hardcoded for non-English parts + file included(HI)

Video
ID                          : 0
Format                      : MPEG-4 Visual
Format profile              : Advanced [email protected]
Format settings, BVOP       : 2
Format settings, QPel       : No
Format settings, GMC        : No warppoints
Format settings, Matrix     : Default (H.263)
Codec ID                    : XVID
Codec ID/Hint               : XviD
Duration                    : 1 h 44 min
Bit rate                    : 1 130 kb/s
Width                       : 720 pixels
Height                      : 304 pixels
Display aspect ratio        : 2.35:1
Frame rate                  : 23.976 (24000/1001) FPS
Color space                 : YUV
Chroma subsampling          : 4:2:0
Bit depth                   : 8 bits
Scan type                   : Progressive
Compression mode            : Lossy
Bits/(Pixel*Frame)          : 0.215
Stream size                 : 843 MiB (89%)
Writing library             : XviD 64

Audio
ID                          : 1
Format                      : MPEG Audio
Format version              : Version 1
Format profile              : Layer 3
Codec ID                    : 55
Codec ID/Hint               : MP3
Duration                    : 1 h 44 min
Bit rate mode               : Constant
Bit rate                    : 128 kb/s
Channel(s)                  : 2 channels
Sampling rate               : 48.0 kHz
Compression mode            : Lossy
Stream size                 : 95.5 MiB (10%)
Alignment                   : Aligned on interleaves
Interleave, duration        : 24  ms (0.58 video frame)

Screenshots:










Please Seed For As Long As Possible
Or At Least 1:1 Ratio...Thanks
Enjoy Peeps
YouTube Video:   
Category:Movies
Language:English  English
Total Size:948.13 MB
Info Hash:FE20211C454ADC5B5D02E33430BC55A26F653DBD
Added By:B4ND1T69 Verified UploaderMovie Pirate
Date Added:2021-06-08 18:04:23
Torrent Status:Torrent Verified


Ratings:Not Yet Rated (Log in to rate it)


Tracker:
udp://tracker.opentrackr.org:1337/announce

This Torrent also has backup trackers
URLSeedersLeechersCompleted
udp://tracker.opentrackr.org:1337/announce222785
udp://exodus.desync.com:6969/announce80328
udp://open.demonii.si:1337/announce000
udp://9.rarbg.to:2750/announce000
udp://open.stealth.si:80/announce110356
udp://tracker.uw0.xyz:6969/announce100333
udp://tracker.tiny-vps.com:6969/announce90199
udp://fasttracker.foreverpirates.co:6969/announce000
udp://explodie.org:6969/announce100
udp://tracker.cyberia.is:6969/announce000
udp://ipv4.tracker.harry.lu:80/announce100
udp://opentracker.i2p.rocks:6969/announce171523
udp://tracker.moeking.me:6969/announce93317
udp://opentor.org:2710/announce100340
udp://tracker.dler.org:6969/announce000


File List: 





Comments
No comments still posted