Download Awake (2021) 720p WEB-HDRip [Hindi ORG DD 5 1 + English] x264 AAC ESub By Full4Movies torrent - GloDLS
Torrent Details For "Awake (2021) 720p WEB-HDRip [Hindi ORG DD 5 1 + English] x264 AAC ESub By Full4Movies"

Awake (2021) 720p WEB-HDRip [Hindi ORG DD 5 1 + English] x264 AAC ESub By Full4Movies

To download this torrent, you need a BitTorrent client: Vuze or BTGuard
Download this torrent
Download using Magnet Link

Health:
Seeds: 91
Leechers: 136
Completed: 128 
Last Checked: 10-06-2021 13:40:35

Uploader Reputation points : 5843





Write a Review for the Uploader:   5   Say Thanks with one good review:
Share on Facebook


Details
Name:Awake (2021) 720p WEB-HDRip [Hindi ORG DD 5 1 + English] x264 AAC ESub By Full4Movies
Description:


Visit Us = https://www.full4movies.org/



General
Complete name                  : Awake (2021) 720p WEB-HDRip [Hindi ORG DD 5.1 + English] x264 AAC ESub By Full4Movies.mkv
Format                         : Matroska
Format version                 : Version 4 / Version 2
File size                      : 1.01 GiB
Duration                       : 1 h 37 min
Overall bit rate               : 1 490 kb/s
Encoded date                   : UTC 2021-06-10 05:43:27
Writing application            : mkvmerge v8.3.0 ('Over the Horizon') 64bit
Writing library                : libebml v1.3.1 + libmatroska v1.4.2
Attachments                    : cooltext383845052472320.jpg

Video
ID                             : 1
Format                         : AVC
Format/Info                    : Advanced Video Codec
Format profile                 : [email protected]
Format settings, CABAC         : Yes
Format settings, RefFrames     : 4 frames
Codec ID                       : V_MPEG4/ISO/AVC
Duration                       : 1 h 37 min
Bit rate                       : 1 200 kb/s
Width                          : 1 280 pixels
Height                         : 640 pixels
Display aspect ratio           : 2.000
Frame rate mode                : Constant
Frame rate                     : 24.000 FPS
Color space                    : YUV
Chroma subsampling             : 4:2:0
Bit depth                      : 8 bits
Scan type                      : Progressive
Bits/(Pixel*Frame)             : 0.061
Stream size                    : 835 MiB (81%)
Writing library                : x264 core 142 r2479 dd79a61
Default                        : Yes
Forced                         : No
Color range                    : Limited
Color primaries                : BT.709
Transfer characteristics       : BT.709
Matrix coefficients            : BT.709

Audio #1
ID                             : 2
Format                         : AAC
Format/Info                    : Advanced Audio Codec
Format profile                 : HE-AAC / LC
Codec ID                       : A_AAC
Duration                       : 1 h 37 min
Bit rate                       : 192 kb/s
Channel(s)                     : 6 channels
Channel positions              : Front: L C R, Side: L R, LFE
Sampling rate                  : 48.0 kHz / 24.0 kHz
Frame rate                     : 23.438 FPS (1024 SPF)
Compression mode               : Lossy
Delay relative to video        : -105 ms
Stream size                    : 134 MiB (13%)
Language                       : Hindi
Default                        : Yes
Forced                         : No

Audio #2
ID                             : 3
Format                         : AAC
Format/Info                    : Advanced Audio Codec
Format profile                 : HE-AAC / LC
Codec ID                       : A_AAC
Duration                       : 1 h 37 min
Bit rate                       : 96.0 kb/s
Channel(s)                     : 2 channels
Channel positions              : Front: L R
Sampling rate                  : 48.0 kHz / 24.0 kHz
Frame rate                     : 23.438 FPS (1024 SPF)
Compression mode               : Lossy
Delay relative to video        : -105 ms
Stream size                    : 66.8 MiB (6%)
Language                       : English
Default                        : No
Forced                         : No

Text #1
ID                             : 4
Format                         : ASS
Codec ID                       : S_TEXT/ASS
Codec ID/Info                  : Advanced Sub Station Alpha
Duration                       : 1 h 28 min
Bit rate                       : 148 b/s
Count of elements              : 1537
Compression mode               : Lossless
Stream size                    : 96.1 KiB (0%)
Title                          : ESub
Language                       : English
Default                        : No
Forced                         : No

Screen Shoots






YouTube Video:
Category:Movies
Language:Dubs/Dual Audio
Total Size:1.01 GB
Info Hash:D8C471E21558194EC132787938C3396F9391CD66
Added By:india4movie Verified Uploader
Date Added:2021-06-10 16:06:19
Torrent Status:Torrent Verified


Ratings:Not Yet Rated (Log in to rate it)


Tracker:
udp://tracker.opentrackr.org:1337/announce

This Torrent also has backup trackers
URLSeedersLeechersCompleted
udp://tracker.opentrackr.org:1337/announce202829
udp://tracker.cyberia.is:6969/announce000
udp://9.rarbg.me:2980/announce131829
udp://open.stealth.si:80/announce81110
udp://exodus.desync.com:6969/announce81214
udp://tracker.moeking.me:6969/announce4116
udp://explodie.org:6969/announce340
udp://tracker.openbittorrent.com:80/announce000
udp://inferno.demonoid.is:3391/announce3115
udp://tracker.torrent.eu.org:451/announce111412
udp://ipv4.tracker.harry.lu:80/announce330
udp://tracker.uw0.xyz:6969/announce10129
udp://tracker.coppersurfer.tk:6969/announce000
udp://exodus.desync.com:6969/announce81214
udp://tracker.tiny-vps.com:6969/announce000


File List: 





Comments
No comments still posted