Download Atomic Blonde (2017) REMASTERED 720p BluRay [Hindi ORG DD 2 0 + English] x264 AAC ESub By Full4Movies torrent - GloDLS
Torrent Details For "Atomic Blonde (2017) REMASTERED 720p BluRay [Hindi ORG DD 2 0 + English] x264 AAC ESu..."

Atomic Blonde (2017) REMASTERED 720p BluRay [Hindi ORG DD 2 0 + English] x264 AAC ESu...

To download this torrent, you need a BitTorrent client: Vuze or BTGuard
Download this torrent
Download using Magnet Link

Health:
Seeds: 84
Leechers: 39
Completed: 75 
Last Checked: 10-06-2021 12:18:18

Uploader Reputation points : 5843





Write a Review for the Uploader:   5   Say Thanks with one good review:
Share on Facebook


Details
Name:Atomic Blonde (2017) REMASTERED 720p BluRay [Hindi ORG DD 2 0 + English] x264 AAC ESu...
Description:


Visit Us = https://www.full4movies.org/



General
Complete name                  : Atomic Blonde (2017) REMASTERED 720p BluRay [Hindi ORG DD 2.0 + English] x264 AAC ESub By Full4Movies.mkv
Format                         : Matroska
Format version                 : Version 4 / Version 2
File size                      : 1.01 GiB
Duration                       : 1 h 54 min
Overall bit rate               : 1 255 kb/s
Encoded date                   : UTC 2021-06-10 05:38:02
Writing application            : mkvmerge v8.3.0 ('Over the Horizon') 64bit
Writing library                : libebml v1.3.1 + libmatroska v1.4.2
Attachments                    : cooltext383845052472320.jpg

Video
ID                             : 1
Format                         : AVC
Format/Info                    : Advanced Video Codec
Format profile                 : [email protected]
Format settings, CABAC         : Yes
Format settings, RefFrames     : 8 frames
Codec ID                       : V_MPEG4/ISO/AVC
Duration                       : 1 h 54 min
Bit rate                       : 1 068 kb/s
Width                          : 1 280 pixels
Height                         : 536 pixels
Display aspect ratio           : 2.40:1
Frame rate mode                : Constant
Frame rate                     : 23.976 (24000/1001) FPS
Color space                    : YUV
Chroma subsampling             : 4:2:0
Bit depth                      : 8 bits
Scan type                      : Progressive
Bits/(Pixel*Frame)             : 0.065
Stream size                    : 877 MiB (85%)
Writing library                : x264 core 152 r2851 ba24899
Default                        : Yes
Forced                         : No
Color range                    : Limited
Color primaries                : BT.709
Matrix coefficients            : BT.709

Audio #1
ID                             : 2
Format                         : AAC
Format/Info                    : Advanced Audio Codec
Format profile                 : HE-AAC / LC
Codec ID                       : A_AAC
Duration                       : 1 h 54 min
Bit rate                       : 96.0 kb/s
Channel(s)                     : 2 channels
Channel positions              : Front: L R
Sampling rate                  : 44.1 kHz / 22.05 kHz
Frame rate                     : 21.533 FPS (1024 SPF)
Compression mode               : Lossy
Delay relative to video        : 9 ms
Stream size                    : 78.7 MiB (8%)
Language                       : Hindi
Default                        : Yes
Forced                         : No

Audio #2
ID                             : 3
Format                         : AAC
Format/Info                    : Advanced Audio Codec
Format profile                 : LC
Codec ID                       : A_AAC
Duration                       : 1 h 54 min
Bit rate                       : 83.3 kb/s
Channel(s)                     : 2 channels
Channel positions              : Front: L R
Sampling rate                  : 48.0 kHz
Frame rate                     : 46.875 FPS (1024 SPF)
Compression mode               : Lossy
Delay relative to video        : 9 ms
Stream size                    : 68.4 MiB (7%)
Language                       : English
Default                        : No
Forced                         : No

Text #1
ID                             : 4
Format                         : VobSub
Muxing mode                    : zlib
Codec ID                       : S_VOBSUB
Codec ID/Info                  : Picture based subtitle format used on DVDs
Duration                       : 1 h 47 min
Bit rate                       : 5 314 b/s
Count of elements              : 1206
Stream size                    : 4.09 MiB (0%)
Title                          : ESub
Language                       : English
Default                        : No
Forced                         : No

Screen Shoots






YouTube Video:
Category:Movies
Language:Dubs/Dual Audio
Total Size:1.01 GB
Info Hash:CB1A7145E7BE15D7B55DAA4BCF1CBDF6F9E4F3B7
Added By:india4movie Verified Uploader
Date Added:2021-06-10 15:59:01
Torrent Status:Torrent Verified


Ratings:Not Yet Rated (Log in to rate it)


Tracker:
udp://tracker.opentrackr.org:1337/announce

This Torrent also has backup trackers
URLSeedersLeechersCompleted
udp://tracker.opentrackr.org:1337/announce121320
udp://tracker.cyberia.is:6969/announce000
udp://9.rarbg.me:2980/announce838
udp://open.stealth.si:80/announce733
udp://exodus.desync.com:6969/announce728
udp://tracker.moeking.me:6969/announce823
udp://explodie.org:6969/announce120
udp://tracker.openbittorrent.com:80/announce325
udp://inferno.demonoid.is:3391/announce725
udp://tracker.torrent.eu.org:451/announce726
udp://ipv4.tracker.harry.lu:80/announce220
udp://tracker.uw0.xyz:6969/announce826
udp://tracker.coppersurfer.tk:6969/announce000
udp://exodus.desync.com:6969/announce728
udp://tracker.tiny-vps.com:6969/announce723


File List: 





Comments
No comments still posted