Download Atomic Blonde (2017) REMASTERED 480p BluRay [Hindi ORG DD 2 0 + English] x264 AAC ESub By Full4Movies torrent - GloDLS
Torrent Details For "Atomic Blonde (2017) REMASTERED 480p BluRay [Hindi ORG DD 2 0 + English] x264 AAC ESu..."

Atomic Blonde (2017) REMASTERED 480p BluRay [Hindi ORG DD 2 0 + English] x264 AAC ESu...

To download this torrent, you need a BitTorrent client: Vuze or BTGuard
Download this torrent
Download using Magnet Link

Health:
Seeds: 38
Leechers: 15
Completed: 26 
Last Checked: 10-06-2021 12:18:10

Uploader Reputation points : 5843





Write a Review for the Uploader:   5   Say Thanks with one good review:
Share on Facebook


Details
Name:Atomic Blonde (2017) REMASTERED 480p BluRay [Hindi ORG DD 2 0 + English] x264 AAC ESu...
Description:


Visit Us = https://www.full4movies.org/



General
Complete name                  : Atomic Blonde (2017) REMASTERED 480p BluRay [Hindi ORG DD 2.0 + English] x264 AAC ESub By Full4Movies.mkv
Format                         : Matroska
Format version                 : Version 4 / Version 2
File size                      : 415 MiB
Duration                       : 1 h 54 min
Overall bit rate               : 506 kb/s
Encoded date                   : UTC 2021-06-10 05:37:06
Writing application            : mkvmerge v8.3.0 ('Over the Horizon') 64bit
Writing library                : libebml v1.3.1 + libmatroska v1.4.2
Attachments                    : cooltext383845052472320.jpg

Video
ID                             : 1
Format                         : AVC
Format/Info                    : Advanced Video Codec
Format profile                 : [email protected]
Format settings, CABAC         : Yes
Format settings, RefFrames     : 4 frames
Codec ID                       : V_MPEG4/ISO/AVC
Duration                       : 1 h 54 min
Bit rate                       : 411 kb/s
Width                          : 720 pixels
Height                         : 302 pixels
Display aspect ratio           : 2.40:1
Original display aspect ratio  : 2.40:1
Frame rate mode                : Constant
Frame rate                     : 23.976 (24000/1001) FPS
Color space                    : YUV
Chroma subsampling             : 4:2:0
Bit depth                      : 8 bits
Scan type                      : Progressive
Bits/(Pixel*Frame)             : 0.079
Stream size                    : 337 MiB (81%)
Writing library                : x264 core 142 r2479 dd79a61
Default                        : Yes
Forced                         : No
Color range                    : Limited
Color primaries                : BT.709
Transfer characteristics       : BT.709
Matrix coefficients            : BT.709

Audio #1
ID                             : 2
Format                         : AAC
Format/Info                    : Advanced Audio Codec
Format profile                 : HE-AAC / LC
Codec ID                       : A_AAC
Duration                       : 1 h 54 min
Bit rate                       : 56.0 kb/s
Channel(s)                     : 2 channels
Channel positions              : Front: L R
Sampling rate                  : 44.1 kHz / 22.05 kHz
Frame rate                     : 21.533 FPS (1024 SPF)
Compression mode               : Lossy
Delay relative to video        : -115 ms
Stream size                    : 45.9 MiB (11%)
Language                       : Hindi
Default                        : Yes
Forced                         : No

Audio #2
ID                             : 3
Format                         : AAC
Format/Info                    : Advanced Audio Codec
Format profile                 : HE-AAC / LC
Codec ID                       : A_AAC
Duration                       : 1 h 54 min
Bit rate                       : 32.0 kb/s
Channel(s)                     : 2 channels
Channel positions              : Front: L R
Sampling rate                  : 48.0 kHz / 24.0 kHz
Frame rate                     : 23.438 FPS (1024 SPF)
Compression mode               : Lossy
Delay relative to video        : -105 ms
Stream size                    : 26.3 MiB (6%)
Language                       : English
Default                        : No
Forced                         : No

Text #1
ID                             : 4
Format                         : VobSub
Muxing mode                    : zlib
Codec ID                       : S_VOBSUB
Codec ID/Info                  : Picture based subtitle format used on DVDs
Duration                       : 1 h 47 min
Bit rate                       : 5 314 b/s
Count of elements              : 1206
Stream size                    : 4.09 MiB (1%)
Title                          : ESub
Language                       : English
Default                        : No
Forced                         : No

Screen Shoots






YouTube Video:
Category:Movies
Language:Dubs/Dual Audio
Total Size:415.42 MB
Info Hash:51C7F65EAA2103B6FB2547344CA28AE1E06EB13D
Added By:india4movie Verified Uploader
Date Added:2021-06-10 15:57:08
Torrent Status:Torrent Verified


Ratings:Not Yet Rated (Log in to rate it)


Tracker:
udp://tracker.opentrackr.org:1337/announce

This Torrent also has backup trackers
URLSeedersLeechersCompleted
udp://tracker.opentrackr.org:1337/announce626
udp://tracker.cyberia.is:6969/announce000
udp://9.rarbg.me:2980/announce513
udp://open.stealth.si:80/announce312
udp://exodus.desync.com:6969/announce212
udp://tracker.moeking.me:6969/announce312
udp://explodie.org:6969/announce110
udp://tracker.openbittorrent.com:80/announce323
udp://inferno.demonoid.is:3391/announce312
udp://tracker.torrent.eu.org:451/announce311
udp://ipv4.tracker.harry.lu:80/announce110
udp://tracker.uw0.xyz:6969/announce313
udp://tracker.coppersurfer.tk:6969/announce000
udp://exodus.desync.com:6969/announce212
udp://tracker.tiny-vps.com:6969/announce310


File List: 





Comments
No comments still posted