Download Atomic Blonde (2017) REMASTERED 1080p BluRay [Hindi ORG DD 2 0 + English] x264 AAC ESub By Full4Movies torrent - GloDLS
Torrent Details For "Atomic Blonde (2017) REMASTERED 1080p BluRay [Hindi ORG DD 2 0 + English] x264 AAC ES..."

Atomic Blonde (2017) REMASTERED 1080p BluRay [Hindi ORG DD 2 0 + English] x264 AAC ES...

To download this torrent, you need a BitTorrent client: Vuze or BTGuard
Download this torrent
Download using Magnet Link

Health:
Seeds: 63
Leechers: 70
Completed: 46 
Last Checked: 10-06-2021 12:18:57

Uploader Reputation points : 5843





Write a Review for the Uploader:   5   Say Thanks with one good review:
Share on Facebook


Details
Name:Atomic Blonde (2017) REMASTERED 1080p BluRay [Hindi ORG DD 2 0 + English] x264 AAC ES...
Description:


Visit Us = https://www.full4movies.org/



General
Complete name                  : Atomic Blonde (2017) REMASTERED 1080p BluRay [Hindi ORG DD 2.0 + English] x264 AAC ESub By Full4Movies.mkv
Format                         : Matroska
Format version                 : Version 4 / Version 2
File size                      : 2.44 GiB
Duration                       : 1 h 54 min
Overall bit rate               : 3 043 kb/s
Encoded date                   : UTC 2021-06-10 05:39:51
Writing application            : mkvmerge v8.3.0 ('Over the Horizon') 64bit
Writing library                : libebml v1.3.1 + libmatroska v1.4.2
Attachments                    : cooltext383845052472320.jpg

Video
ID                             : 1
Format                         : AVC
Format/Info                    : Advanced Video Codec
Format profile                 : [email protected]
Format settings, CABAC         : Yes
Format settings, RefFrames     : 5 frames
Codec ID                       : V_MPEG4/ISO/AVC
Duration                       : 1 h 54 min
Bit rate                       : 2 856 kb/s
Width                          : 1 920 pixels
Height                         : 804 pixels
Display aspect ratio           : 2.40:1
Frame rate mode                : Constant
Frame rate                     : 23.976 (24000/1001) FPS
Color space                    : YUV
Chroma subsampling             : 4:2:0
Bit depth                      : 8 bits
Scan type                      : Progressive
Bits/(Pixel*Frame)             : 0.077
Stream size                    : 2.29 GiB (94%)
Writing library                : x264 core 152 r2851 ba24899
Default                        : Yes
Forced                         : No

Audio #1
ID                             : 2
Format                         : AAC
Format/Info                    : Advanced Audio Codec
Format profile                 : HE-AAC / LC
Codec ID                       : A_AAC
Duration                       : 1 h 54 min
Bit rate                       : 96.0 kb/s
Channel(s)                     : 2 channels
Channel positions              : Front: L R
Sampling rate                  : 44.1 kHz / 22.05 kHz
Frame rate                     : 21.533 FPS (1024 SPF)
Compression mode               : Lossy
Delay relative to video        : 9 ms
Stream size                    : 78.7 MiB (3%)
Language                       : Hindi
Default                        : Yes
Forced                         : No

Audio #2
ID                             : 3
Format                         : AAC
Format/Info                    : Advanced Audio Codec
Format profile                 : LC
Codec ID                       : A_AAC
Duration                       : 1 h 54 min
Bit rate                       : 83.3 kb/s
Channel(s)                     : 2 channels
Channel positions              : Front: L R
Sampling rate                  : 48.0 kHz
Frame rate                     : 46.875 FPS (1024 SPF)
Compression mode               : Lossy
Delay relative to video        : 9 ms
Stream size                    : 68.4 MiB (3%)
Language                       : English
Default                        : No
Forced                         : No

Text #1
ID                             : 4
Format                         : VobSub
Muxing mode                    : zlib
Codec ID                       : S_VOBSUB
Codec ID/Info                  : Picture based subtitle format used on DVDs
Duration                       : 1 h 47 min
Bit rate                       : 5 314 b/s
Count of elements              : 1206
Stream size                    : 4.09 MiB (0%)
Title                          : ESub
Language                       : English
Default                        : No
Forced                         : No

Screen Shoots






YouTube Video:
Category:Movies
Language:Dubs/Dual Audio
Total Size:2.44 GB
Info Hash:10BFD0F9F58E5804FA8BADE09943369148693B05
Added By:india4movie Verified Uploader
Date Added:2021-06-10 16:00:46
Torrent Status:Torrent Verified


Ratings:Not Yet Rated (Log in to rate it)


Tracker:
udp://tracker.opentrackr.org:1337/announce

This Torrent also has backup trackers
URLSeedersLeechersCompleted
udp://tracker.opentrackr.org:1337/announce8136
udp://tracker.cyberia.is:6969/announce000
udp://9.rarbg.me:2980/announce563
udp://open.stealth.si:80/announce764
udp://exodus.desync.com:6969/announce455
udp://tracker.moeking.me:6969/announce664
udp://explodie.org:6969/announce230
udp://tracker.openbittorrent.com:80/announce335
udp://inferno.demonoid.is:3391/announce665
udp://tracker.torrent.eu.org:451/announce775
udp://ipv4.tracker.harry.lu:80/announce430
udp://tracker.uw0.xyz:6969/announce774
udp://tracker.coppersurfer.tk:6969/announce000
udp://exodus.desync.com:6969/announce455
udp://tracker.tiny-vps.com:6969/announce000


File List: 





Comments
No comments still posted